2024 Cullum - John Cullum (born March 2, 1930) [2] is an American actor and singer. [3] He has appeared in many stage musicals and dramas, including Shenandoah (1975) and On the Twentieth …

 
Life. He was the son of Sir John Cullum, 5th Baronet, of Hardwick House, Hardwick, Suffolk. Sir John Cullum, 6th Baronet (1733–1785), his brother, was known as the "historian of Hawstead". H Thomas Gery Cullum became 7th Baronet in 1785. He was a well-regarded writer on science and on botany and became a Fellow of the Royal Society, of the …. Cullum

Nov 26, 2020 · Hang Your Lights’ is the spectacular single from Jamie Cullum’s brand new Christmas album, The Pianoman at Christmas. Buy or stream the album here: https://j... Robert “Bob” Cullum and his brother Charles didn’t sell success at the flagship Tom Thumb store that opened on Lomo Alto Drive in 1948. But they certainly stocked the supermarket with the ingredients it took to create it. “I cannot define it precisely,” Charles was quoted as saying in Tom Thumb: The Little Giant.‘The Pianoman at Christmas: The Complete Edition’, out now: https://jamiecullum.lnk.to/TPACCompleteEditionIDFollow Jamie: https://JamieCullum.lnk.to/FollowID...Parts & Service. Cullum & Brown is well known for the quality product lines it represents for compressed air, low pressure air & vacuum and liquid pump applications. One of the most important aspects of product distribution is the ability to service what you sell. This is what makes Cullum & Brown stand above the competition. Easterhouse, Glasgow, Scotland. Occupation. Actor. Years active. 1993–present. Gary Stevenson (born 30 November 1957), better known as Gary Lewis, is a Scottish actor. …Jul 12, 2023 · Cullum describes the feeling of treading into uncharted territory and being unsure what will happen next. With romantic undertones, Cullum tells his muse that in the midst of the storm, they will “dance under the weather// Soaking wet, we let go together,” and to “just let it go// Go with the flow// See where the waters will take you.” Jan 12, 2024 · Jamie Cullum is an English jazz-pop singer-songwriter and radio presenter who has a net worth of $8 million. Since independently releasing his debut album “Heard It All Before” in 1999, Jamie ... Jamie Cullum - The Age Of Anxiety (tradução) (Letra e música para ouvir) - I just wanna live inside sometimes / Don't wanna have to beg you to subscribe / Are you a …Alvin Cullum York (December 13, 1887 – September 2, 1964), also known by his rank as Sergeant York, was an American soldier who was one of the most decorated United States Army soldiers of World War I. [1] He received the Medal of Honor for leading an attack on a German machine gun nest, gathering 35 machine guns, killing at least 25 [2 ... Jamie Cullum - The Age Of Anxiety (tradução) (Letra e música para ouvir) - I just wanna live inside sometimes / Don't wanna have to beg you to subscribe / Are you a …1.6M views 3 years ago. Jamie Cullum Greatest Hits - Jamie Cullum Full Album PlaylistJamie Cullum (born 20 August 1979) [1] is an English jazz-pop singer-songwriter and radio present...Jamie Cullum & Kansas Smitty's - God Rest Ye Merry Gentlemen.wav Peak level 93.2 % Extraction speed 5.0 X Track quality 99.9 % Test CRC B6296744 Copy CRC B6296744 Track not present in AccurateRip database Copy OK Track 13 Filename D:\#cdr\#wav+flac\#Add\Jamie Cullum - The Pianoman At Christmas\cd 1\13.While the judges weren’t confident at all with their guesses, viewers at home reckon McFly star Danny Jones is behind Piranha’s mask. Taking to X following their Masked Singer debut, viewers ...Jamie Cullum & Kansas Smitty's - God Rest Ye Merry Gentlemen.wav Peak level 93.2 % Extraction speed 5.0 X Track quality 99.9 % Test CRC B6296744 Copy CRC B6296744 Track not present in AccurateRip database Copy OK Track 13 Filename D:\#cdr\#wav+flac\#Add\Jamie Cullum - The Pianoman At Christmas\cd 1\13.Dec 2, 2009 · ‘The Pianoman at Christmas: The Complete Edition’, out now: https://jamiecullum.lnk.to/TPACCompleteEditionIDFollow Jamie: https://JamieCullum.lnk.to/FollowID... 27 Jul 24 Jazzopen Stuttgart 2024 Stuttgart BUY. Preview, download or stream The Pianoman At Christmas by Jamie Cullum.They started dating in 2007, tying the knot during a romantic New Forest ceremony in January 2010. And Sophie Dahl made a rare family appearance with her husband Jamie Cullum and her children on ...Jan 27, 2021 · Ellen Elizabeth Cullum, 65, of Darlington, MD passed away on January 21st, 2021 after losing her battle with COVID-19. Born Ellen Elizabeth Knight to William and Ruth Knight, she grew up in Street, MD No. 2: Original stereo backing track. The next kind of phonograms are stereo-mixes of original songs without vocal. Such tracks, as a rule, are shared by authors or their assistants. The original phonogram has only a few differences from the original multitrack. The difference is that all instruments are bounced in a stereo-track.Click here to skip the text and watch the video tutorial instead. I’m sure you’ve seen emails hit your inbox and you can’t help but notice that the sender has a professionally designed email signature complete with a logo or headshot, social media icons, and various other information like a link to their opt-in, website, or other pertinent information.Jamie Cullum was born to a Jewish father and Indian mother on 20 August 1979 in Rochford, Essex, England. His nationality is Britain and belongs to a Mixed (English, Spanish, Indian) ethnicity. His father’s name is John Cullum and his mother’s name is Yvonne Cullum. He has a brother, Ben Cullum, and does not have any sisters.Early History of the Cullum family. This web page shows only a small excerpt of our Cullum research. Another 87 words (6 lines of text) covering the years 1855, 1574, 1633, 1597, 1662, 1587, 1664, 1628, 1680, 1657, 1720, 1690, 1702, 1705, 1674, 1754, 1699, 1774, 1587 and 1664 are included under the topic Early Cullum History in all our PDF Extended …At 44 years old, Cullum, a self-taught chef and San Antonio native, has owned or been involved in several restaurants, including Tucker’s Kozy Korner; a lively fried-chicken restaurant named ... Early History of the Cullum family. This web page shows only a small excerpt of our Cullum research. Another 87 words (6 lines of text) covering the years 1855, 1574, 1633, 1597, 1662, 1587, 1664, 1628, 1680, 1657, 1720, 1690, 1702, 1705, 1674, 1754, 1699, 1774, 1587 and 1664 are included under the topic Early Cullum History in all our PDF Extended History products and printed products ... Performing under a dome with exceptional acoustics, inexhaustible showman Jamie Cullum gives a spellbinding solo concert, mixing up genres from jazz to rock and pop. Director. Alexandre Buisson. With. Jamie Cullum. Country. France. Year. 2020. Chapters. 0:10. These Are The Days. 4:27. Taller. 8:20. Love Is In The Picture. 12:38.Jamie Cullum showcases his love of jazz, featuring live sessions and special guests. Nubya Garcia and Nu Civilisation Orchestra at Maida Vale Performing tracks from Stan Getz's classic album Focus.Show all 10. Sophie Dahl and Jamie Cullum have secretly married. The couple celebrated their wedding at a luxurious country hotel at the weekend after keeping the event secret from all but their ...Jul 12, 2023 · Cullum describes the feeling of treading into uncharted territory and being unsure what will happen next. With romantic undertones, Cullum tells his muse that in the midst of the storm, they will “dance under the weather// Soaking wet, we let go together,” and to “just let it go// Go with the flow// See where the waters will take you.” Jamie Cullum showcases his love of jazz, featuring live sessions and special guests. Ancient Infinity Orchestra at Maida Vale. The large Leeds ensemble are in session. Judi Jackson Take 5.‘The Pianoman at Christmas: The Complete Edition’, out now: https://jamiecullum.lnk.to/TPACCompleteEditionIDFollow Jamie: https://JamieCullum.lnk.to/FollowID...Prom 55: Jamie Cullum and the Heritage Orchestra. SETLIST: 0:01:39 All At The Sea 0:09:12 Just One Of Those Things 0:15:16 Get Your Way 0:21:37 If I Ruled The …The former model and author lives in a colourful Buckinghamshire farm house which shines with colour. "At the age of nine, I was obsessed with books about Victorian orphans. My daydreams were of malevolent governesses and rambling houses with mazes and orangeries," writes author, Sophie Dahl, in Conde Nast Traveller.Twentysomething is the third studio album by English singer Jamie Cullum. It was released on 20 October 2003 in Europe, and in May 2004 in the United States. The album has sold 2.5 million copies worldwide, and achieved eleven platinum, eleven gold and two silver certifications. It is the fastest-selling jazz album in chart history and its ... Show all 10. Sophie Dahl and Jamie Cullum have secretly married. The couple celebrated their wedding at a luxurious country hotel at the weekend after keeping the event secret from all but their ...Author. George Washington Cullum (25 February 1809 – 28 February 1892) was an American soldier, engineer and writer. He worked as the supervising engineer on the building and repair of many fortifications across the country. Cullum served as a general in the Union Army during the American Civil War, primarily in the Western Theater and served ... Alvin Cullum York (December 13, 1887 – September 2, 1964), also known as Sergeant York, was one of the most decorated United States Army soldiers of World War I. He received the Medal of Honor for leading an attack on a German machine gun nest, taking at least one machine gun, killing at least 25 enemy soldiers and capturing 132.Practice the future tense ‘going to’ in your ESL class with this song, I wanna start a fight by Pink. There are 7 different examples of “going to” in these song lyrics:…. Rick Astley – Never gonna give you up. Practice the future tense ‘going to’ in your ESL class with this song, Never gonna give you up by Rick Astley.There is no strumming pattern for this song yet. Create and get +5 IQ. [Intro] G#m7 C#9 F#maj7 D7 I'm sorry to say that I didn't know her name C#m7 F#9 Bmaj9 In fact the last six hours are a haze G#m7 C#9 Fmaj7 D7 Piecing together the fragments of a frame C#m7 F#9sus4 Bb/B Bmaj7 Why my motor skills are out of phase F#m11 A/B Emaj7 C#9 …Five hundred square feet is tiny by any standard, but it’s a particularly cozy canvas for a creative duo with an unabashed object lust. “Everything we have is personal,” says William Cullum, the senior designer at Jayne Design Studio, who shares this prewar Greenwich Village apartment with his partner, Jeffery Rhodes, who works in fashion and …Sep 3, 2015 · MARGARET CULLUM Obituary. CULLUM, Margaret Anne Margaret Anne Cullum lived in Dallas all of her life but spent as much time as possible traveling the world. She was born on Sunday afternoon, February 23, 1941, after her parents had been to the Junior League follies the night before. She was the first of the three children of Bobbie and Earl ... Daryll Lee Cullum is the overarching antagonist of the 1995 thriller film Copycat. He was portrayed by the actor and singer Harry Connick Jr. Noted criminal psychologist, a woman named Helen Hudson, is giving a lecture on the mindset and mentality of a serial killer at a university in San Franscisco, California. Unbeknownst to her, there is an escaped serial …Shane Cullum. Actor: Finding the Truth. Shane Cullum has been acting in film, television, and theater for approximately 20 years throughout Las Vegas, Southern California, and Texas, and has also directed and produced numerous theatrical productions. He has appeared in television shows such as "Sex Sent Me to the ER" and "Outrageous 911" …Jamie Cullum's newly-expanded 'The Pianoman At Christmas Complete Edition' is set for release through Island Records on November 19, 2022.Show all 10. Sophie Dahl and Jamie Cullum have secretly married. The couple celebrated their wedding at a luxurious country hotel at the weekend after keeping the event secret from all but their ...Performing under a dome with exceptional acoustics, inexhaustible showman Jamie Cullum gives a spellbinding solo concert, mixing up genres from jazz to rock and pop. Director. Alexandre Buisson. With. Jamie Cullum. Country. France. Year. 2020. Chapters. 0:10. These Are The Days. 4:27. Taller. 8:20. Love Is In The Picture. 12:38.Dr. Daniel Cullum Oral & Maxillofacial Surgeon. Dr. Cullum completed his DDS with distinction at the University of Alberta, Canada and a general practice residency and specialty training in Oral and Maxillofacial Surgery at Westchester Medical Center, New York. He is a diplomat of the American Board of Oral and Maxillofacial Surgeons. Dr. Cullum, George W. (George Washington), 1809-1892. Publication date 1879 Topics United States Military Academy Publisher New York : J. Miller Collection cdl; americana Contributor University of California Libraries Language English Volume 1. v. 1. 1802-1840.--v. 2. 1841-1867.--v. 3. SupplementApr 4, 2018 — Nugerundesu Gold Full English.rar ... download hitbfdcm 2 Sandy Leah - Manuscrito ao vivo Jamie Cullum-Twenty Something full album zip hit. Cullum's second major label release, the second since he got the full-on New Thing in Town, feature story on NPR treatment. Since his first disc, Twentysomething, .... Lyrics to Twentysomething by …Secretary of the Army Pete Geren, center, with the U.S. Corps of Cadets senior leadership and Brig. Gen. Michael Linnington, far left, Commandant of the Corps of Cadets, after the congressional retirement review of the Corps of Cadets for Rep. Dave Hobson, center right, and Rep. Jim Saxton, center left, 2008. The United States Military Academy (USMA) …Jamie Cullum’s multi-million selling 2003 album Twentysomething will be available on vinyl for the first time on October 20 via Decca and Universal Music. The new edition will arrive on the ...1.6M views 3 years ago. Jamie Cullum Greatest Hits - Jamie Cullum Full Album PlaylistJamie Cullum (born 20 August 1979) [1] is an English jazz-pop singer-songwriter and radio present...The official website of Jamie Cullum, the British jazz musician and singer-songwriter. Find his latest music, tour dates, radio show, store and more. Listen to his new album The Pursuit and his live performance of The Man from "King Of Thieves". Cullum Last Name Statistics demography. The religious devotion of those carrying the Cullum last name is predominantly Catholic (75%) in Ireland. In The United States those holding the Cullum last name are 10.08% more likely to be registered Republicans than The US average, with 56.85% being registered to vote for the political party.Oct 28, 2023 · 1. 2. 3. Showing 1 - 300 of 892 results. Search Cullum family obituaries and memoriams on Legacy.com. There are 892 obituaries and memoriams for the surname Cullum. Sue Turner Cullum, 94, died peacefully in the early morning hours of Thursday, December 7, 2023 at her home in Rolling Green Village in Greenville SC. Born in Taylors, SC on January 31, 1929, Sue was the daughter of the late William Ervin Turner and Pearl Allen Turner. Her parents raised her and her five siblings in a loving Christian home in ... Quantity. Phlox paniculata ‘Eva Cullum’ (Garden Phlox) 33. Buy Plants. Prolific and mildew resistant, Phlox paniculata 'Eva Cullum' features large, bright pink blooms with tiny dark pink eyes that float atop the attractive dark green foliage. Sweetly fragrant, they are borne on stiff, upright stems which seldom need staking.‘The Pianoman at Christmas: The Complete Edition’, out now: https://jamiecullum.lnk.to/TPACCompleteEditionIDFollow Jamie: https://JamieCullum.lnk.to/FollowID...Apr 8, 2021 · John Cullum Joseph Marzullo/WENN. Two-time Tony winner John Cullum, most recently on Broadway in Waitress, offers his solo show An Accidental Star virtually April 8–22. Two live watch party ... How cool would that be, seriously!! Can't find a picture of Cullum and Brubeck standing up but Brubeck was a pretty tall guy like Bill Evans in his prime and would have still towered Cullum even in his 90s by then. Brubeck's got a son who is supposed to be something crazy like 6'9 or something.On Aug. 10, 2023, a Facebook user named Chris Cullum published a post that detailed various security concerns about Saturn, a scheduling mobile app that's intended for high school students.C. Munro Cullum, Ph.D., is Professor of Psychiatry, Neurology, and Neurological Surgery and holder of the Pam Blumenthal Distinguished Professor in Clinical Psychology.He serves as the Vice Chair and Chief of the Division of Psychology in the Department of Psychiatry and is the Scientific Director of the Texas Alzheimer's Research and Care Consortium (TARCC). Jamie Cullum 208K subscribers Subscribe Subscribed 580K views 3 years ago From the forthcoming album, The Pianoman at Christmas, coming November 20th. Available to preorder here:... Secretary of the Army Pete Geren, center, with the U.S. Corps of Cadets senior leadership and Brig. Gen. Michael Linnington, far left, Commandant of the Corps of Cadets, after the congressional retirement review of the Corps of Cadets for Rep. Dave Hobson, center right, and Rep. Jim Saxton, center left, 2008. The United States Military Academy (USMA) …Jamie Cullum showcases his love of jazz, featuring live sessions and special guests. Nubya Garcia and Nu Civilisation Orchestra at Maida Vale Performing tracks from Stan Getz's classic album Focus.Twentysomething is the third studio album by English singer Jamie Cullum. It was released on 20 October 2003 in Europe, and in May 2004 in the United States. The album has sold 2.5 million copies worldwide, and achieved eleven platinum, eleven gold and two silver certifications. It is the fastest-selling jazz album in chart history and its ...Aug 15, 2023 · On Aug. 10, 2023, a Facebook user named Chris Cullum published a post that detailed various security concerns about Saturn, a scheduling mobile app that's intended for high school students. In ... Sep 8, 2023 · Published on. September 8, 2023. By. Paul Sexton. Jamie Cullum 'Twentysomething' artwork - Courtesy: Decca Records. Jamie Cullum’s multi-million selling 2003 album Twentysomething will be ... Jamie Cullum was born to a Jewish father and Indian mother on 20 August 1979 in Rochford, Essex, England. His nationality is Britain and belongs to a Mixed (English, Spanish, Indian) ethnicity. His father’s name is John Cullum and his mother’s name is Yvonne Cullum. He has a brother, Ben Cullum, and does not have any sisters.Secretary of the Army Pete Geren, center, with the U.S. Corps of Cadets senior leadership and Brig. Gen. Michael Linnington, far left, Commandant of the Corps of Cadets, after the congressional retirement review of the Corps of Cadets for Rep. Dave Hobson, center right, and Rep. Jim Saxton, center left, 2008. The United States Military Academy (USMA) …Daryll Lee Cullum is the overarching antagonist of the 1995 thriller film Copycat. He was portrayed by the actor and singer Harry Connick Jr. Noted criminal psychologist, a woman named Helen Hudson, is giving a lecture on the mindset and mentality of a serial killer at a university in San Franscisco, California. Unbeknownst to her, there is an escaped serial …Mar 19, 2021 · This point is epitomised by Cullum’s new single ‘Kiss Away’, which marks the beginning of his self-described ‘new era’ of music, and, fittingly, opens with the line ‘the boy is mine’. A marked departure from the material on his 2017 album ‘Lonely Hearts Club’, the release of ‘Kiss Away’ represents the first time he has ... Listen to 'Don't Give Up On Me': https://JamieCullum.lnk.to/DGUOMID‘The Pianoman at Christmas: The Complete Edition’, out now: https://jamiecullum.lnk.to/TPA...Jamie Cullum showcases his love for all types of jazz and music rooted in jazz, from its heritage to its future. Featuring live sessions and guests from around the world. Available now.Nicky Cullum trained as a nurse in Liverpool, UK and was awarded a PhD in pharmacology from the University of Liverpool in 1990. She gained postdoctoral research experience at the University of Surrey, UK, in the Department of Health-funded Nursing Practice Research Unit, and the Department of Nursing at the University of Liverpool.Feb 23, 2021 · Kevin Cullum is tracking the results of his years-long fitness challenge on Instagram. By Jesse Hicks Published: Feb 23, 2021 11:59 AM EST. Kevin Cullum didn't initially set out to do a million ... Cullum holds a bachelor's degree in Finance and a master's degree in business administration from the University of Central Missouri. Read More. Kevin Cullum Current Workplace . Nissan Motor Corporation. 2007-present (17 years) Nissan is a manufacturer and retailer of automobiles, automobile parts, and motor vehicles.06/02/2024. Jamie Cullum showcases his love of jazz, featuring live sessions and special guests. Tue 13 Feb 2024 21:00. BBC Radio 2.Apr 8, 2021 · John Cullum in John Cullum: An Accidental Star. Photo: Carol Rosegg. John Cullum calls his backward glance over a 60-year career John Cullum: An Accidental Star. Granted, accidents and luck affect anyone’s career, but much more goes into a career as successful as his has been. Determination, grit, and savvy have their vaunted place. The official website of Jamie Cullum, the British jazz musician and singer-songwriter. Find his latest music, tour dates, radio show, store and more. Listen to his new album The …Show all 10. Sophie Dahl and Jamie Cullum have secretly married. The couple celebrated their wedding at a luxurious country hotel at the weekend after keeping the event secret from all but their ...Digitization has been a hot topic for quite some time now – but the speed at which offline retailers have had to digitize their sales and operations, due to competitive pressure and the many ...Objective: The Texas Functional Living Scale (TFLS) is a new performance-based measure of functional abilities with an emphasis on instrumental activities of daily living skills that is brief and weighted toward cognitive tasks. The purpose of this study was to examine its psychometric properties and clinical utility in patients with Alzheimer disease (AD) and …Following the Archives relocation to Cullum Hall, the Archives area on the fourth floor will become the new home for the Department of Geography and Environmental Engineering. Thayer Hall Built in 1909 as a riding hall where cadets were taught horsemanship, Thayer Hall was converted to an academic building in 1958. This massive ...Cullum has been the top name in construction and HVAC service organizations in the Southeast since 1972. Positively impacting and serving commercial and industrial industries is the company’s goal, and operations are divided into two thriving subsidiaries to continue to set the standard for customer service. Jamie Cullum - The Age Of Anxiety (tradução) (Letra e música para ouvir) - I just wanna live inside sometimes / Don't wanna have to beg you to subscribe / Are you a …Jamie Cullum & Kansas Smitty's - God Rest Ye Merry Gentlemen.wav Peak level 93.2 % Extraction speed 5.0 X Track quality 99.9 % Test CRC B6296744 Copy CRC B6296744 Track not present in AccurateRip database Copy OK Track 13 Filename D:\#cdr\#wav+flac\#Add\Jamie Cullum - The Pianoman At Christmas\cd 1\13.Tom Thumb was founded in 1948 by J.R. Bost and Robert B. Cullum as Tom Thumb Food Stores after acquiring 6 Toro supermarkets (Cullum was grocery supplier to Toro when Toro folded, and the owner fled the country). [4] It was once a publicly traded company on the NYSE under the name Cullum Companies. By 1956 it had grown to 20 stores.How cool would that be, seriously!! Can't find a picture of Cullum and Brubeck standing up but Brubeck was a pretty tall guy like Bill Evans in his prime and would have still towered Cullum even in his 90s by then. Brubeck's got a son who is supposed to be something crazy like 6'9 or something.Already a sensation in his native England, 22-year-old piano man Jamie Cullum comes off like a hip amalgamation of Harry Connick, Jr. and Randy Newman on his sophomore effort, Twentysomething. As with Blue Note’s crossover wunderkind Norah Jones, Cullum works best when he’s not trying too hard to please hardcore jazz …Who put harry, Sambopercent27s 903 drive in menu, Opercent27reillypercent27s yankton south dakota, Chuck lager america, Jim stoppani shortcut to shred pdf free download, Craftsman 159cc lawn mower wonpercent27t start, Personalizestore, Garden state dispensary woodbridge reviews, Sampercent27s club walbrook drive, Noveswskimgs, 2022 women, No hard feelings showtimes near west wind sacramento 6 drive in, Neustadt, 2 pack mercury marine mercruiser oil filter 35 866340k01

Dec 20, 2003 · Civic Leader AUGUSTA, Ga. - Mr. James Curtis Cullum died at his home on December 19, 2003. He was pre- deceased by his oldest daughter, Lillian ' Love' Cullum and his sister Helen Cullum Owings ... . Honda hr v for sale in las pinas

cullum630496

Robert “Bob” Cullum and his brother Charles didn’t sell success at the flagship Tom Thumb store that opened on Lomo Alto Drive in 1948. But they certainly stocked the supermarket with the ingredients it took to create it. “I cannot define it precisely,” Charles was quoted as saying in Tom Thumb: The Little Giant.How cool would that be, seriously!! Can't find a picture of Cullum and Brubeck standing up but Brubeck was a pretty tall guy like Bill Evans in his prime and would have still towered Cullum even in his 90s by then. Brubeck's got a son who is supposed to be something crazy like 6'9 or something.‘The Pianoman at Christmas: The Complete Edition’, out now: https://jamiecullum.lnk.to/TPACCompleteEditionIDFollow Jamie: https://JamieCullum.lnk.to/FollowID...Jan 12, 2024 · Jamie Cullum is an English jazz-pop singer-songwriter and radio presenter who has a net worth of $8 million. Since independently releasing his debut album “Heard It All Before” in 1999, Jamie ... Kodi by Jared Cullum is a visually stunning graphic novel, and such a sweet and heartwarming story. Katya and her Meema are spending their summer in their Alaskan cottage. Katya stays in her room all day reading comics, so …Listen to 'Don't Give Up On Me': https://JamieCullum.lnk.to/DGUOMID‘The Pianoman at Christmas: The Complete Edition’, out now: https://jamiecullum.lnk.to/TPA...Jun 26, 2020 · Cullum, known on the East End as the founder of Wildlife Rescue of East Hampton, Inc ., and his penchant for the area's rich history, holds his memories of his son, Christopher Dell Cullum, close ... Prom 55: Jamie Cullum and the Heritage Orchestra. SETLIST: 0:01:39 All At The Sea 0:09:12 Just One Of Those Things 0:15:16 Get Your Way 0:21:37 If I Ruled The …Five hundred square feet is tiny by any standard, but it’s a particularly cozy canvas for a creative duo with an unabashed object lust. “Everything we have is personal,” says William Cullum, the senior designer at Jayne Design Studio, who shares this prewar Greenwich Village apartment with his partner, Jeffery Rhodes, who works in fashion and …The official website of Jamie Cullum, the British jazz musician and singer-songwriter. Find his latest music, tour dates, radio show, store and more. Listen to his new album The …Jamie Cullum is an English jazz-pop singer, songwriter and radio presenter. Although primarily a vocalist and pianist, he also accompanies himself on other instruments, including guitar and drums. He has recorded nine studio albums, three compilation albums, one live album and twenty-four singles. Since April 2010, he has presented a weekly Tuesday …Jan 6, 2013 · George Cullum Obituary. Cullum Jr., George Pierce 94, of Dallas, passed away on Friday, surrounded by family and those who loved him. Mr. Cullum was born in Dallas on May 18, 1918, to the late George Pierce Cullum Sr. and wife Ethel. He graduated from Southern Methodist University with a degree in civil engineering in 1942 and married the love ... J. Cullum, Iterative methods for solvingAx=b, GMRES versus QMR/BICG, IBM Research Report, RC20325, IBM Research, Yorktown Heights, NY (January 1996). J. Cullum, Arnoldi versus nonsymmetric Lanczos algorithms for solving matrix eigenvalue problems, BIT 36 (1996) 470–493. Article Google ScholarJamie Cullum - Ouvir todas as 177 músicas. 1. Jamie Cullum - Mind Trick. Adicionar à playlist. 2. Jamie Cullum - Everlasting Love. Adicionar à playlist. 3. Jamie Cullum - Next …Jamie Cullum covered Lovesick Blues, Silent Night, Interlude, Jingle Bells and other songs. Jamie Cullum originally did Lovesick Blues, Silent Night, Interlude, Jingle Bells and other songs. Jamie Cullum wrote When I Get Famous, All at Sea and Twentysomething.Jamie Cullum - Ouvir todas as 177 músicas. 1. Jamie Cullum - Mind Trick. Adicionar à playlist. 2. Jamie Cullum - Everlasting Love. Adicionar à playlist. 3. Jamie Cullum - Next …Jamie Cullum 208K subscribers Subscribe Subscribed 580K views 3 years ago From the forthcoming album, The Pianoman at Christmas, coming November 20th. Available to preorder here:... This point is epitomised by Cullum’s new single ‘Kiss Away’, which marks the beginning of his self-described ‘new era’ of music, and, fittingly, opens with the line ‘the boy is mine’. A marked departure from the material on his 2017 album ‘Lonely Hearts Club’, the release of ‘Kiss Away’ represents the first time he has ...From the forthcoming album, The Pianoman at Christmas, coming November 20th. Available to preorder here: https://jamiecullum.lnk.to/ThePianomanAtChristmas©2023 Cullum Homes' floor plans and elevations are copyrighted. Cullum Homes reserves the right to modify at any time the floor plans, features, specifications, and/or prices as needed to meet changing market conditions. The plans depicted in sales materials are preliminary and not intended to be used as construction documentation.In the Mind of Jamie Cullum is a compilation album by Jamie Cullum, released on 28 August 2007 in the UK and on 18 September 2007 in the US. Track listing. Nina Simone – "I Think It's Gonna Rain Today"Ice caps, lakes and rivers (which now flow to vast expanses of soil) and underground water are still available. Added together, those sources total about 3.5 percent of our present water supply, the other …Chords: F7, D7, Gm7, C7. Chords for Jamie Cullum - What A Difference A Day Made. Play along with guitar, ukulele, or piano with interactive chords and diagrams. Includes transpose, capo hints, changing speed and much more.Alvin Cullum York (December 13, 1887 – September 2, 1964), also known by his rank as Sergeant York, was an American soldier who was one of the most decorated United States Army soldiers of World War I. [1] He received the Medal of Honor for leading an attack on a German machine gun nest, gathering 35 machine guns, killing at least 25 [2 ... Jamie Cullum showcases his love for all types of jazz and music rooted in jazz, from its heritage to its future. Featuring live sessions and guests from around the world. Available now.John Cullum calls his backward glance over a 60-year career John Cullum: An Accidental Star. Granted, accidents and luck affect anyone’s career, but much more goes into a career as successful as his has been. Determination, grit, and savvy have their vaunted place. Cullum, now 91 and long removed from his Knoxville, Tennessee …Cullum describes the feeling of treading into uncharted territory and being unsure what will happen next. With romantic undertones, Cullum tells his muse that in the midst of the storm, they will “dance under the weather// Soaking wet, we let go together,” and to “just let it go// Go with the flow// See where the waters will take you.”Jamie Cullum showcases his love for all types of jazz and music rooted in jazz, from its heritage to its future. Featuring live sessions and guests from around the world. Episodes ( 6 Available ...May 18, 2006 · A family interment will be held for Charles Cullum at Sparkman Hillcrest at 9:00 Monday, May 22, followed by a memorial service at 11:00 at Oak Lawn United Methodist Church. Memorials may be made to Oak Lawn United Methodist Church at 3014 Oak Lawn Avenue, Dallas, Texas 75219 or to the Episcopal School of Dallas at 4100 Merrill Road, Dallas ... No. 2: Original stereo backing track. The next kind of phonograms are stereo-mixes of original songs without vocal. Such tracks, as a rule, are shared by authors or their assistants. The original phonogram has only a few differences from the original multitrack. The difference is that all instruments are bounced in a stereo-track.Daryll Lee Cullum is the overarching antagonist of the 1995 thriller film Copycat. He was portrayed by the actor and singer Harry Connick Jr. Noted criminal psychologist, a woman named Helen Hudson, is giving a lecture on the mindset and mentality of a serial killer at a university in San Franscisco, California. Unbeknownst to her, there is an escaped serial …Mar 24, 2018 · Kenneth R. Cullum, 80, of Farmington, CT formerly of New Britain, CT passed away peacefully Monday, March 19, 2018 at Amberwoods of Farmington. Kenneth was born in New Britain on August 27, 1937. He w Feb 23, 2021 · Kevin Cullum is tracking the results of his years-long fitness challenge on Instagram. By Jesse Hicks Published: Feb 23, 2021 11:59 AM EST. Kevin Cullum didn't initially set out to do a million ... Violin – Darius Campo, Joel Derouin, Josefina Vergara, Katia Popov, Mario De Leon *, Mark Robertson (3), Michele Richards, Natalie Leggett, Robert Matsuda, Roberto Cani, Tereza Stanislav. Written-By – Ben Cullum, Jamie Cullum. Arranged By [Strings] – Paul Buckmaster. Bass, Programmed By – Greg Wells.Jamie Cullum reveals he was teased about height more after marrying Sophie Dahl. Jazz pop singer Jamie Cullum, 39, on the joys of getting older, and getting ribbed for having a much taller wife ...1. Shawn Mendes, Camila Cabello – The Christmas Song (Official Music Video) Shawn Mendes and Camila Cabello’s vocals blend perfectly on this cover of a Christmas music classic. 2. Camila Cabello – I’ll Be Home For Christmas (Official Audio) 3. Jessica Simpson – It’s Christmas Time Again (Official Lyric Video) 4. Debbie Gibson ...Jamie Cullum has spoken of his pride at receiving an Ivor Novello award for a song partly inspired by his friendship with the late Amy Winehouse. His track The Age of Anxiety was named best song ...Cullum has been the top name in construction and HVAC service organizations in the Southeast since 1972. Positively impacting and serving commercial and industrial industries is the company’s goal, and operations are divided into two thriving subsidiaries to continue to set the standard for customer service. Jamie Cullum (born 20 August 1979) [1] is an English jazz-pop singer, songwriter and radio presenter. Although primarily a vocalist and pianist, he also accompanies himself on other instruments, including guitar and drums. He has recorded nine studio albums, three compilation albums, one live album and twenty-four singles. Violin – Darius Campo, Joel Derouin, Josefina Vergara, Katia Popov, Mario De Leon *, Mark Robertson (3), Michele Richards, Natalie Leggett, Robert Matsuda, Roberto Cani, Tereza Stanislav. Written-By – Ben Cullum, Jamie Cullum. Arranged By [Strings] – Paul Buckmaster. Backing Vocals – Luke Tozour, Michael Stevens.Last Rites: Directed by Félix Enríquez Alcalá. With Anthony Edwards, Noah Wyle, Julianna Margulies, Gloria Reuben. After his mother's funeral, Dr. Greene comforts his father (JOHN CULLUM) in San Diego. In Chicago, Romano surprises Corday by appointing her associate chief of surgery. Corday treats Elaine, Carter's lover, for breast cancer.What does Cullum mean? Information and translations of Cullum in the most comprehensive dictionary definitions resource on the web. Login . The STANDS4 Network. Cadastre-se na Deezer de graça e ouça Jamie Cullum: discografia, top músicas e playlists. Born in East London in 1979, raised in Wiltshire, Jamie Cullum became an unlikely star …Background. Cullum divulged that the title of the album was a reference to attention toward his height in comparison to that of his wife, Sophie Dahl, quipping that he "managed to completely break one of the laws of the universe by marrying a taller woman and it was quite interesting how much that was talked about". Release and promotion ...Prom 55: Jamie Cullum and the Heritage Orchestra.SETLIST:0:01:39 All At The Sea0:09:12 Just One Of Those Things0:15:16 Get Your Way 0:21:37 If I Ruled The Wo...Aug 12, 2019 · Courtesy James Cullum. Longtime San Antonio cornetist and jazz band leader Jim Cullum, Jr. died on Sunday from an apparent heart attack. He was 77. He spoke to TPR's David Martin Davies in 2009. He said his early cornet playing days were pretty casual. "Go to school, and chase the girls a little bit, and play the cornet," he joked. Jun 15, 2011 · Mr. Cullum, whose last Shakespeare in the Park performances came almost 50 years ago, has few peers when it comes to both longevity and versatility. “Measure” and “All’s Well” come on ... Nov 11, 2012 · Paul Cullum Obituary. Paul Francis Cullum III, 57, was taken from his family tragically, due to complications related to open heart surgery, on Nov. 3, 2012, at Sentara Heart Hospital, Norfolk, Va. A Mass of Remembrance will be held at Saint Catherine of Siena R.C. Church, Cedar Grove, N.J., on Nov. 17 at 11:30 a.m. Paul was born in Cedar Grove ... Rod Cullum is the founder and president of Cullum Homes, an award-winning luxury custom home builder with over 35 years of experience in the Valley’s most prestigious neighborhoods. As a ...Jan 6, 2024 · Jamie Cullum was born to a Jewish father and Indian mother on 20 August 1979 in Rochford, Essex, England. His nationality is Britain and belongs to a Mixed (English, Spanish, Indian) ethnicity. His father’s name is John Cullum and his mother’s name is Yvonne Cullum. He has a brother, Ben Cullum, and does not have any sisters. Jamie Cullum - Twentysomething (Full Album 2003)Twentysomething is the third studio album by English singer Jamie Cullum. It was released on 20 October 2003 ...Last Rites: Directed by Félix Enríquez Alcalá. With Anthony Edwards, Noah Wyle, Julianna Margulies, Gloria Reuben. After his mother's funeral, Dr. Greene comforts his father (JOHN CULLUM) in San Diego. In Chicago, Romano surprises Corday by appointing her associate chief of surgery. Corday treats Elaine, Carter's lover, for breast cancer.This list contains albums like Catching Tales and Twentysomething. This list of popular Jamie Cullum CDs has been voted on by music fans around the world, so the order of this list isn't just one person's opinion. You can use this factual list to create a new list, re-rank it to fit your views, then share it with your Twitter followers ...1. Shawn Mendes, Camila Cabello – The Christmas Song (Official Music Video) Shawn Mendes and Camila Cabello’s vocals blend perfectly on this cover of a Christmas music classic. 2. Camila Cabello – I’ll Be Home For Christmas (Official Audio) 3. Jessica Simpson – It’s Christmas Time Again (Official Lyric Video) 4. Debbie Gibson ...On Aug. 10, 2023, a Facebook user named Chris Cullum published a post that detailed various security concerns about Saturn, a scheduling mobile app that's intended for high school students.John Cullum. John Cullum (born March 2, 1930) [2] is an American actor and singer. [3] He has appeared in many stage musicals and dramas, including Shenandoah (1975) and On the Twentieth Century (1978), winning the Tony Award for Best Leading Actor in a Musical for each. In 1966 he gained his first Tony nomination as the lead in On a Clear Day ... Sharing of good practice. In order to ensure a consistent approach to supporting autistic young people across each school, Cullum Centre staff need to spread their specialist autism knowledge to their mainstream school colleagues. For example, in many schools, greater understanding and support is required for pupils with co-occurring …Jul 12, 2023 · Cullum describes the feeling of treading into uncharted territory and being unsure what will happen next. With romantic undertones, Cullum tells his muse that in the midst of the storm, they will “dance under the weather// Soaking wet, we let go together,” and to “just let it go// Go with the flow// See where the waters will take you.” Tom Thumb was founded in 1948 by J.R. Bost and Robert B. Cullum as Tom Thumb Food Stores after acquiring 6 Toro supermarkets (Cullum was grocery supplier to Toro when Toro folded, and the owner fled the country). [4] It was once a publicly traded company on the NYSE under the name Cullum Companies. By 1956 it had grown to 20 stores.Strumming. There is no strumming pattern for this song yet. Create and get +5 IQ. [Intro] F Dm Gm C (x3) F Dm Gm C Fmaj7 What a difference a day made, twenty four little hours Bb Gm C F Brought the sun and the flowers where there use to be rain D/G A Dm7 My yesterday was blue dear Today (still) I'm a part of you dear ( F) Gm C My lonely …Jamie Cullum (born 20 August 1979) [1] is an English jazz-pop singer, songwriter and radio presenter. Although primarily a vocalist and pianist, he also accompanies himself on other instruments, including guitar and drums. He has recorded nine studio albums, three compilation albums, one live album and twenty-four singles. Cullum & Brown | 262 followers on LinkedIn. Cullum & Brown is your one-stop source for air compressors, dryers, blowers, pumps and vacuum pumps. We have been supplying quality products and service ...Jamie Cullum covered Lovesick Blues, Silent Night, Interlude, Jingle Bells and other songs. Jamie Cullum originally did Lovesick Blues, Silent Night, Interlude, Jingle Bells and other songs. Jamie Cullum wrote When I Get Famous, All at Sea and Twentysomething.‘The Pianoman at Christmas: The Complete Edition’, out now: https://jamiecullum.lnk.to/TPACCompleteEditionIDFollow Jamie: https://JamieCullum.lnk.to/FollowID...Jan 27, 2021 · Ellen Elizabeth Cullum, 65, of Darlington, MD passed away on January 21st, 2021 after losing her battle with COVID-19. Born Ellen Elizabeth Knight to William and Ruth Knight, she grew up in Street, MD Design and installation only mark the start of Cullum’s mechanical engineering and construction capabilities. A full team of professionals ensures all new systems function as designed with an array of services that include startup and commissioning, troubleshooting, performance testing, operations supervision, and complete equipment checkout. Daryll Lee Cullum is the overarching antagonist of the 1995 thriller film Copycat. He was portrayed by the actor and singer Harry Connick Jr. Noted criminal psychologist, a woman named Helen Hudson, is giving a lecture on the mindset and mentality of a serial killer at a university in San Franscisco, California. Unbeknownst to her, there is an escaped serial …Feb 2, 2003 · Earl Cullum Obituary. CULLUM, COLONEL EARL OWEN, was born in San Antonio on September 14, 1913 and died in Dallas on January 31, 2003. He attended North Dallas High School 1927-1931 where he was ROTC Colonel 1929-1930, football letterman and first editor of the "Compass" school newspaper. Isabell Kraemer’s Cullum tee is a breezy top knitted in Sparrow, embellished with lacy details at neck and hem and an easy fit that works with everything in your wardrobe. Worked seamlessly from the top down, Cullum begins with shoulders shaped with short rows before joining to work in the round for the body. shown in size 36¾“ / 93.5 …. Higan eruthyll, 402 pimiento verde kilo, Tandd obituaries orangeburg south carolina, 2 5, Autopartes cerca de mi ubicacion, Apartments for rent under dollar1500 near me, Henrico county public schools calendar 2022 23, Nasdaq nymt, N 1 grand prix battle cats, Fort und weiterbildung, Allen roth eastview 14 78 in dark oil rubbed bronze outdoor.htm, Aeroporto joao paulo ii, Nirvana center prescott valley reviews, Ju men, Avh 120bt wiring diagram, How to get a driver, Israel, Drexel men.